Blog

Underwater 2020 HDRip DVDR snoogie AVI full movie torrent download

Health

Underwater 2020 HDRip Underwater 2020 HDRip DVDR snoogie AVI full movie torrent download

Verified torrent Download

Director: William Eubank

Screenwriters: Brian Duffield (screen shot), Adam Cozad (screen shot)

Stars: Kristen Stewart, Vincent Cassel, Miller

Action / story:

A group of water investigators are trying to reach safety after an earthquake destroyed their underground laboratory. But the crew must be more than just the seabed.

Generally

Full name:

Format: AVI

Format / Information: Audio Video Interleave

File size: 976 MiB

Duration: 1 33 min

Total transmission speed: 1453 kb / s

Subtitles: (HI)

Video

ID: 0

Format: Visual MPEG-4

Profile format: Advanced

Format settings, BVOP: 2

Format settings, QPel: No.

Format settings, GMC: no warp points

Format, matrix settings: standard ()

Codec ID: XVID

Codec ID / Tip: XviD

Duration: 1 33 min

Download speed: 1311 kbps

Width: 720 pixels

Height: 400 pixels

Screen aspect ratio: 16: 9

Thumb speed: (30000/1001) FPS

Color space: YUV

Chromium substrate: 4: 2: 0

Bit depth: 8 pieces

Type of scan: progressive

Compression Mode: Loss

Bits / (Pixel frame *):

Stream size: 881 MiB (90%)

Writing Library: XviD 64

Sound

ID: 1

Format: MPEG audio

Version format: version 1

Format profile: Tier 3

Codec ID: 55

Codec ID / Tip: MP3

Duration: 1 33 min

Bitrate mode: constant

Upload speed: 128 kbps

Channel (s): 2 channels

Sampling frequency: kHz

Compression Mode: Loss

Stream size: MiB (9%)

Alignment: Aligned to backgrounds

Intertwined, duration: 24 ms (video frame)

Snapshots:

Please seed as far as possible

Or at least 1: 1

Enjoy the peeps

17 4 Torrent vote

Download uTorrent Download uTorrent

  1. Underwater 2020 HDRip license Carebabee free movie download torrent
  2. Underwater 2020 HDRip FULL HDrip movie torrent download
  3. Underwater 2020 HDRip Clean Audio Shizzy 720p full torrent download