Blog

mpeg,download

Inglourious Basterds 2009 Bratzky DVDrip.720p KAT free torrent download

Health

Inglourious Basterds 2009 Inglourious Basterds 2009 Bratzky DVDrip.720p KAT free torrent download
Verified torrent Download

***** NEZNANSTVENE GOLINE (2009) *****

IMDb:

IMDb: 8.3 / 10 of 637153 users

Director (s) … https://alimentechnician.com/index.php/2020/09/14/logan-2017-dvdrip-torrent-download/
..: Quentin Tarantino

: Quentin Tarantino

: Brad Pitt, Mlanie Laurent, Christoph Waltz, Eli Roth,

Michael Fassbender, Diane Kruger, Daniel Brhl

Genre (s) ….
https://romasbaycity.com/underwater-2020-hdrip-dvdr-snoogie-avi-full-movie-torrent-download/
…: Adventure / Drama / War

In Nazi-occupied France during World War II, a plan to assassinate the Nazis

the leaders of a group of Jewish soldiers join the theater

the owner’s revenge plans for the same.

FILE INFORMATION:

: mkv

File: 596 MB

Running: 02:26:36

: 720×300 resolution (2.40: 1, x264)

Video: RF uniform: 20.0

: channels (aac, 128 kbps)

Voice: English

Hard coded orders: English for non-English dialogue

Soft coded orders: English, Swedish, Finnish, Norwegian, Danish (srt)

Frame: 25.00 fps

: DVD (PAL)

: On

Screenshots:..

49 2 Torrent vote

Download uTorrent Download uTorrent

  1. Inglourious Basterds 2009 avi Shinker Full Torrent
  2. Inglourious Basterds 2009 DVD full torrent
  3. Inglourious Basterds 2009 DVDRip Full Movie Download Torrent

70b28

Underwater 2020 HDRip DVDR snoogie AVI full movie torrent download

Health

Underwater 2020 HDRip Underwater 2020 HDRip DVDR snoogie AVI full movie torrent download
Verified torrent Download

Director: William Eubank

Screenwriters: Brian Duffield (screen shot), Adam Cozad (screen shot)

Stars: Kristen Stewart, Vincent Cassel, Miller

Action / story:

A group of water investigators are trying to reach safety after an earthquake destroyed their underground laboratory. But the crew must be more than just the seabed.

Generally

Full name:

Format: AVI

Format / Information: Audio Video Interleave

File size: 976 MiB

Duration: 1 33 min

Total transmission speed: 1453 kb / s

Subtitles: (HI)

Video

ID: 0

Format: Visual MPEG-4

Profile format: Advanced

Format settings, BVOP: 2

Format settings, QPel: No.

Format settings, GMC: no warp points

Format, matrix settings: standard ()

Codec ID: XVID

Codec ID / Tip: XviD

Duration: 1 33 min

Download speed: 1311 kbps

Width: 720 pixels

Height: 400 pixels

Screen aspect ratio: 16: 9

Thumb speed: (30000/1001) FPS

Color space: YUV

Chromium substrate: 4: 2: 0

Bit depth: 8 pieces

Type of scan: progressive

Compression Mode: Loss

Bits / (Pixel frame *):

Stream size: 881 MiB (90%)

Writing Library: XviD 64

Sound

ID: 1

Format: MPEG audio

Version format: version 1

Format profile: Tier 3

Codec ID: 55

Codec ID / Tip: MP3

Duration: 1 33 min

Bitrate mode: constant

Upload speed: 128 kbps

Channel (s): 2 channels

Sampling frequency: kHz

Compression Mode: Loss

Stream size: MiB (9%)

Alignment: Aligned to backgrounds

Intertwined, duration: 24 ms (video frame)

Snapshots:

Please seed as far as possible

Or at least 1: 1

Enjoy the peeps

17 4 Torrent vote

Download uTorrent Download uTorrent

  1. Underwater 2020 HDRip license Carebabee free movie download torrent
  2. Underwater 2020 HDRip FULL HDrip movie torrent download
  3. Underwater 2020 HDRip Clean Audio Shizzy 720p full torrent download

70b28